#TITLE:Like fire tonight;
#SUBTITLE:;
#ARTIST:Gunther & The Sunshine Girls;
#TITLETRANSLIT:;
#SUBTITLETRANSLIT:;
#ARTISTTRANSLIT:;
#CREDIT:;
#BANNER:bn.png;
#BACKGROUND:bg.png;
#LYRICSPATH:;
#CDTITLE:cd.png;
#MUSIC:Like fire tonight.mp3;
#OFFSET:-0.040;
#SAMPLESTART:100.000;
#SAMPLELENGTH:12.000;
#SELECTABLE:YES;
#BPMS:0.000=120.040,4.000=240.080,6.000=48.016,7.000=240.080,8.000=120.040,32.000=240.080,34.000=48.016,35.000=240.080,36.000=120.040,227.500=180.060,227.750=60.020,227.875=180.060,228.000=120.040,229.500=180.060,229.750=60.020,229.875=180.060,230.000=120.040,231.500=180.060,231.750=60.020,231.875=180.060,232.000=120.040,233.500=180.060,233.750=60.020,233.875=180.060,234.000=120.040,235.500=180.060,235.750=60.020,235.875=180.060,236.000=120.040,237.500=180.060,237.750=60.020,237.875=180.060,238.000=120.040,239.500=180.060,239.750=60.020,239.875=180.060,240.000=120.040;
#STOPS:;
#BGCHANGES:;
// cache tags:
#FIRSTBEAT:8.000;
#LASTBEAT:241.500;
#SONGFILENAME:Songs/Super Dancer Online/Like fire tonight/Like fire tonight.sm;
#HASMUSIC:1;
#HASBANNER:1;
#MUSICLENGTH:123.837;
// end cache tags

//---------------dance-single - sky----------------
#NOTES:
     dance-single:
     sky:
     Hard:
     14:
     0.731,0.878,1.000,0.000,0.638,497.000,137.000,0.000,0.000,0.000:
0000
0000
0000
0000
,
0000
0000
0000
0000
,
1001
0000
0000
0000
,
0000
0000
0000
0000
,
0000
0000
0000
0000
,
0000
0000
0000
0000
0000
0000
1000
0000
0010
0000
0000
0100
0000
0000
0000
0000
,
0001
0000
0000
0000
0000
0000
0000
0000
0001
0000
0000
0010
0000
0000
0100
0000
,
0011
0000
0000
0100
0000
0000
1000
0000
0000
0000
0000
0000
0000
0000
0000
0000
,
0101
0000
0000
0000
,
1001
0000
0000
0000
0000
0000
0000
0000
1001
0000
0000
1001
0000
0000
0100
0010
,
1001
0000
0000
0110
0000
0000
0000
0000
,
1001
0000
0100
0010
0001
0000
0010
0100
1000
0000
0100
0010
0001
0000
1001
0000
,
1001
0000
0100
0010
0001
0000
1001
0000
0001
0010
0100
1000
0010
0000
0010
0000
,
1001
0000
0100
0010
0101
0000
0010
0100
1010
0000
0100
0010
0101
0000
1001
0000
,
1001
0000
0100
0010
0101
0000
1001
0000
0101
0010
0100
1000
0010
0000
0000
0000
,
1000
0000
0000
0010
0100
0000
0001
0000
0010
0000
0000
0100
0010
0000
1000
0000
,
0001
0000
0000
0010
0100
0000
1000
0000
0100
0000
0010
0010
0001
0000
0000
0000
,
1000
0000
0000
0010
0100
0000
0001
0000
0010
0000
0000
0100
0010
0000
1000
0000
,
0001
0000
0000
0010
0100
0000
1000
0000
0100
0010
0001
1000
0100
0000
0010
0010
,
0101
0000
0000
0010
0100
0000
1000
0000
0010
0000
0000
0100
0010
0000
0001
0000
,
0010
0000
0000
0100
0010
0000
1000
0000
1000
0100
0010
0001
0100
0000
0000
0000
,
0101
0000
0010
0100
1000
0000
0010
0000
1010
0000
0100
0010
0001
0000
0100
0000
,
0001
0000
0000
0010
0100
0000
1000
0000
0100
0000
0000
0100
0010
0000
0001
0000
,
0101
0000
0010
0100
1000
0000
0010
0000
1010
0000
0100
0010
0001
0000
0100
0000
,
0001
0000
0000
0010
0100
0000
1000
0000
0100
0010
0001
0010
0100
0010
0001
0000
,
0101
0000
0000
0010
0100
0000
1010
0000
1010
0000
0000
0100
0010
0000
0101
0000
,
1010
0000
0000
0100
0010
0000
0101
0000
1010
0000
0000
0100
0010
0000
1001
0000
,
1010
0000
0000
0100
0010
0000
0101
0000
1010
0000
0000
0100
0010
0000
0101
0000
,
0011
0000
0000
1100
0000
0000
0011
0000
0110
0000
0000
0000
0010
0000
0000
0000
,
0101
0000
0000
0010
0100
0000
1010
0000
0101
0000
0000
0100
0010
0000
0101
0000
,
1010
0000
0000
0100
0010
0000
0101
0000
1010
0000
0000
0100
0010
0000
1001
0000
,
0101
0000
0000
0010
0100
0000
1010
0000
0101
0000
0000
0010
0100
0000
1010
0000
,
0101
0000
0000
0010
0100
0000
1000
0000
1001
0000
0000
0000
1001
0000
0000
0000
,
1010
0000
1000
0100
0010
0000
0101
0000
0101
0000
0010
0100
1000
0000
1010
0000
,
0101
0000
0010
0100
1000
0000
1010
0000
0101
0000
0100
0010
0001
0000
1010
0000
,
0011
0000
0010
0100
1000
0000
1100
0000
0011
0000
1000
0100
0010
0000
0110
0000
,
1001
0000
0010
0100
1000
0000
1001
0000
0101
0000
1000
0100
0010
0000
1001
0000
,
1010
0000
1000
0100
0010
0000
0101
0000
0101
0000
0010
0100
1000
0000
1010
0000
,
0101
0000
0010
0100
1000
0000
1010
0000
0101
0000
0100
0010
0001
0000
1010
0000
,
0011
0000
0010
0100
1000
0000
1100
0000
0011
0000
1000
0100
0010
0000
0110
0000
,
1001
0000
0000
0100
0000
0000
0010
0000
1001
0000
0000
0010
0100
1000
0100
0010
,
1001
0010
0100
1000
0100
0010
0001
0010
0100
1000
0100
0010
0100
0010
0001
0010
,
1001
0010
0100
0010
0001
0100
0010
1000
0100
0001
0010
0100
0001
0100
0010
0100
,
1001
0100
0010
0100
1000
0010
0100
0001
0010
0100
0010
0100
1000
0100
0010
0100
,
1001
0010
0100
0010
0001
0100
0010
1000
0100
0001
0010
0100
0001
0100
0010
0100
,
1001
0100
0010
0100
1000
0010
0100
0001
1000
0100
0010
0100
1000
0100
0010
0100
,
1001
0100
0010
1000
0001
0010
0100
0001
1000
0100
0010
0100
1000
0100
0010
0100
,
1001
0100
0010
0100
1000
0010
0100
0001
1000
0100
0010
0100
1000
0100
0010
0100
,
1001
0100
0010
0100
1000
0100
0010
1000
0100
0010
0100
0001
0010
0100
0010
0000
,
0101
0000
0000
0010
0000
0000
0100
0000
1001
0000
0000
1001
0000
0000
1001
0000
,
1001
0000
0000
0000
0000
0000
1000
1000
0010
0000
0000
0001
0000
0000
0010
0000
,
1000
0000
0000
0000
0000
0000
0100
0000
0010
0000
0000
0001
0000
0000
0010
0000
,
1000
0000
0000
0000
0000
0000
0000
0000
0101
0000
0000
0100
0000
0000
0010
0000
,
1001
0000
0000
0100
0000
0000
0010
0000
0101
0000
0000
1001
0000
0000
1010
0000
,
0101
0000
0001
0010
0100
0000
1010
0000
0101
0000
0001
0010
0100
0000
1010
0000
,
0101
0000
1000
0100
0010
0000
1001
0000
0101
0000
1000
0100
0010
0000
1001
0000
,
0101
0000
0001
0010
0100
0000
1010
0000
0101
0000
0001
0010
0100
0000
1010
0000
,
1001
0000
0000
0110
0000
0000
1001
0000
1001
0000
0000
0110
0000
0000
1001
0000
,
1001
0000
0000
0110
0000
0000
1001
0000
1001
0000
0000
0110
0000
0000
1001
0000
,
1001
0000
0000
0110
0000
0000
1001
0000
1001
0000
0000
0110
0000
0000
1001
0000
,
1001
0000
0000
0000
1000
0100
0011
0000
0000
0000
0000
0000
0000
0000
0000
0000
;
